HTML 5 video play problem until skip first second

RESOLVED DUPLICATE of bug 868797

Status

()

Core
Audio/Video: Playback
RESOLVED DUPLICATE of bug 868797
3 years ago
2 years ago

People

(Reporter: shahrokh.moghimi, Assigned: jya)

Tracking

41 Branch
Points:
---

Firefox Tracking Flags

(Not tracked)

Details

(URL)

Attachments

(1 attachment)

(Reporter)

Description

3 years ago
Created attachment 8672561 [details]
5TwJTzUhTgGW.webm

User Agent: Mozilla/5.0 (X11; Ubuntu; Linux x86_64; rv:41.0) Gecko/20100101 Firefox/41.0
Build ID: 20151001175629

Steps to reproduce:

Open link : http://static0.ilna.ir/throw/5TwJTzUhTgGW.webm
Or use attachment file to play standard webm codec encoded by ffmpeg.

Stream #0:0: Video: vp8, yuv420p, 1050x576, SAR 1:1 DAR 175:96, 25 fps, 25 tbr, 1k tbn, 1k tbc (default)
 Stream #0:1: Audio: vorbis, 44100 Hz, stereo, fltp (default)


Actual results:

Video doesn't play until click the seek to skip first seconds and then play. This video will play success on Chrome and VLC (Network Stream).


Expected results:

Play :D
(Reporter)

Updated

3 years ago
Severity: normal → critical
OS: Unspecified → All
Hardware: Unspecified → All

Comment 1

3 years ago
I can reproduce the improper behavior on Firefox 43 dev edition on Windows 7.
Severity: critical → normal
Status: UNCONFIRMED → NEW
Ever confirmed: true

Updated

3 years ago
Component: Untriaged → Audio/Video: Playback
Product: Firefox → Core
(Assignee)

Updated

3 years ago
Assignee: nobody → jyavenard

Comment 2

3 years ago
I can reproduce the improper behavior on Firefox 41.0a2 dev edition on Ubuntu 14.04.

Comment 3

3 years ago
I can reproduce the described behavior on latest Firefox Nightly x64 in Windows 10.
(Assignee)

Comment 4

3 years ago
The file is invalid.

bug 868797 contains instructions on how to fix your file with ffmpeg
Status: NEW → RESOLVED
Last Resolved: 3 years ago
Resolution: --- → DUPLICATE
Duplicate of bug: 868797
You need to log in before you can comment on or make changes to this bug.