Closed Bug 952410 Opened 6 years ago Closed 2 years ago

[Flatfish][Video] Crashes when loading media type: 3gp & mp4

Categories

(Firefox OS Graveyard :: Gaia::Video, defect)

ARM
Gonk (Firefox OS)
defect
Not set

Tracking

(Not tracked)

RESOLVED WONTFIX

People

(Reporter: echang, Unassigned)

References

Details

(Whiteboard: [flatfish][TCP=feature-p2])

Attachments

(1 file)

Gaia      41377d094fdc4dd8630d386e04d807938d1d2fce  │  
Gecko     51982015ef7165ed009e96ec93eb59826e86a4c3  │  
BuildID   20131220064521                            │  
Version   29.0a1                                    │  
ro.build.version.incremental=20131220               │  
ro.build.date=Fri Dec 20 06:53:07 CST 2013 

1. Flash above build.
2. Copy some MP4 & 3GP on flatfish.
3. Open "Video".
4. <ISSUE> Video crashes.
Flags: needinfo?(johu)
We test it with a file with the following codec information, but not work:

Input #0, mov,mp4,m4a,3gp,3g2,mj2, from '/Users/hchu/Cervantes-Mozilla-Summit-2013-Privacy-Security.mp4-':
  Metadata:
    major_brand     : mp42
    minor_version   : 0
    compatible_brands: isommp42
    creation_time   : 2013-10-04 19:12:43
  Duration: 00:04:20.64, start: 0.000000, bitrate: 472 kb/s
    Stream #0:0(und): Video: h264 (Constrained Baseline) (avc1 / 0x31637661), yuv420p, 640x360, 374 kb/s, 30 fps, 30 tbr, 60 tbn, 60 tbc
    Metadata:
      handler_name    : VideoHandler
    Stream #0:1(und): Audio: aac (mp4a / 0x6134706D), 44100 Hz, stereo, fltp, 96 kb/s
    Metadata:
      creation_time   : 2013-10-04 19:13:13
      handler_name    : IsoMedia File Produced by Google, 5-11-2011


3gp files should be created by built-in Camera app.
Flags: needinfo?(johu)
Can this bug be added with [TCP]? Thanks.
This bug blocks almost all development work of the codec.
Flags: needinfo?(jcheng)
Whiteboard: [Flatfish only][developer+] → [flatfish][TCP]
Flags: needinfo?(jcheng)
The crash is caused by OMXMaster died. The death of OMXMaster may be related to the following messages:
E/OMXCodec( 1787): [OMX.allwinner.video.decoder.avc] called start in the unexpected state: 4
Whiteboard: [flatfish][TCP] → [flatfish][TCP=feature-p2]
Blocks: flatfish
H.264 Video source preview Image failed.

See more detail in bug 1040648 comment #14
Depends on: 924015, 935381
Firefox OS is not being worked on
Status: NEW → RESOLVED
Closed: 2 years ago
Resolution: --- → WONTFIX
You need to log in before you can comment on or make changes to this bug.